Abertis DTT Hispasat? (ALTDVB)

User to user support, ask here if you don't know how to do or configure something
Post Reply
ViaHussun
Posts: 2
Joined: Mon May 10, 2021 3:58 pm

Abertis DTT Hispasat? (ALTDVB)

Post by ViaHussun »

Abertis DTT How are the broadcasts I watch ? :?: :?: :?:

Posts appear data and Biss key doesn't work. :cry: :cry: :cry:

Image

Image


IS IT TIME TO UPDATE THE APP? (ALTDVB)
:roll: :roll: :roll:
EnoSat
Posts: 32
Joined: Sat Jan 04, 2020 8:43 am
Location: Slovakia
Contact:

Re: Abertis DTT Hispasat? (ALTDVB)

Post by EnoSat »

1, source transport stream
capture_012_30052021_230744.png
capture_012_30052021_230744.png (91.69 KiB) Viewed 174 times
https://mega.nz/file/eMoAxQCD#eYdHmPdK9 ... XrqTLwptCM

2, stream after decrypt pid 8004
capture_006_30052021_223930.png
capture_006_30052021_223930.png (90.95 KiB) Viewed 174 times
tsp.exe -I file "30w12671.ts" -P descrambler --pid 8004 --cw 759EC4D7AA7F658E -O file "12671dec8004.ts"
https://mega.nz/file/4FclVQpT#cse39TS9R ... G6PqdrIN7Q

2, stream after extract 8004 from transport stream
capture_010_30052021_224946.png
capture_010_30052021_224946.png (35.46 KiB) Viewed 174 times
https://mega.nz/file/tRdDjK5T#mjsrNWv10 ... 9OVHr7jCS8

Code: Select all

Hlavné parametre
ID                                       : 18 (0x12)
Celý názov a cesta                       : E:\12671dec8004ext.ts
Formát                                   : BDAV
Formát/Info                              : Blu-ray Video
Veľkosť súboru                           : 145 MiB
Trvanie                                  : 59 sek. 617 ms
Overall bit rate mode                    : Variabilný dátový tok
Celkový dátový tok                       : 20,3 Mb/s
Network name                             : MPE5
Original network name                    : Spanish Digital Terrestrial Television
FileExtension_Invalid                    : m2ts mts ssif

Video #1
ID                                       : 301 (0x12D)
Označenie menu                           : 103 (0x67)
Formát                                   : AVC
Formát/Info                              : Advanced Video Codec
Profil formátu                           : High@L4.1
Nastavenia formátu                       : CABAC / 4 Ref Frames
Format settings, CABAC                   : Áno
Format settings, Reference frames        : 4snímky
Označenie kodeku                         : 27
Trvanie                                  : 58 sek. 100 ms
Šírka                                    : 1 920 pixelov
Výška                                    : 1 080 pixelov
Pomer strán                              : 16:9
Frekvencia snímok                        : 25,000 snímok/sek.
Color space                              : YUV
Chroma subsampling                       : 4:2:0
Bit depth                                : 8 bitov
Scan type                                : Prekladané
Scan type, store method                  : Separated fields
Scan order                               : Horný riadok ako prvý
Color range                              : Limited
Color primaries                          : BT.709
Transfer characteristics                 : BT.709
Matrix coefficients                      : BT.709
Maximum Content Light Level              : 15860 cd/m2
Maximum Frame-Average Light Level        : 53463 cd/m2

Video #2
ID                                       : 401 (0x191)
Označenie menu                           : 104 (0x68)
Formát                                   : MPEG Video
Format version                           : Version 2
Profil formátu                           : Main@Main
Označenie kodeku                         : 2
Trvanie                                  : 59 sek. 560 ms
Frekvencia snímok                        : 25,000 snímok/sek.
Chroma subsampling                       : 4:2:0
Compression mode                         : Lossy

Audio #1
ID                                       : 303 (0x12F)
Označenie menu                           : 103 (0x67)
Formát                                   : MPEG Audio
Format version                           : Version 1
Profil formátu                           : Layer 2
Označenie kodeku                         : 3
Trvanie                                  : 58 sek. 584 ms
Režim dátového toku                      : Konštantný dátový tok
Dátový tok                               : 192 kb/s
Kanál(y)                                 : 2 kanály
Sampling rate                            : 48,0 kHz
Frekvencia snímok                        : 41,667 snímok/sek. (1152 SPF)
Compression mode                         : Lossy
Video delay                              : -934 ms
Stream size                              : 1,34 MiB (1%)
Jazyk                                    : Španielsky

Audio #2
ID                                       : 304 (0x130)
Označenie menu                           : 103 (0x67)
Formát                                   : MPEG Audio
Format version                           : Version 1
Profil formátu                           : Layer 2
Označenie kodeku                         : 3
Trvanie                                  : 58 sek. 800 ms
Režim dátového toku                      : Variabilný dátový tok
Kanál(y)                                 : 2 kanály
Sampling rate                            : 48,0 kHz
Compression mode                         : Lossy
Video delay                              : -950 ms
Jazyk                                    : v.o

Audio #3
ID                                       : 305 (0x131)
Označenie menu                           : 103 (0x67)
Formát                                   : MPEG Audio
Format version                           : Version 1
Profil formátu                           : Layer 2
Označenie kodeku                         : 3
Trvanie                                  : 58 sek. 896 ms
Režim dátového toku                      : Konštantný dátový tok
Dátový tok                               : 64,0 kb/s
Kanál(y)                                 : 2 kanály
Sampling rate                            : 48,0 kHz
Frekvencia snímok                        : 41,667 snímok/sek. (1152 SPF)
Compression mode                         : Lossy
Video delay                              : -862 ms
Stream size                              : 460 kiB (0%)
Jazyk                                    : Španielsky
Language, more info                      : Visual impaired commentary

Audio #4
ID                                       : 402 (0x192)
Označenie menu                           : 104 (0x68)
Formát                                   : MPEG Audio
Format version                           : Version 1
Profil formátu                           : Layer 2
Označenie kodeku                         : 3
Trvanie                                  : 59 sek. 424 ms
Režim dátového toku                      : Konštantný dátový tok
Dátový tok                               : 192 kb/s
Kanál(y)                                 : 2 kanály
Sampling rate                            : 48,0 kHz
Frekvencia snímok                        : 41,667 snímok/sek. (1152 SPF)
Compression mode                         : Lossy
Video delay                              : 9 h 46 min
Stream size                              : 1,36 MiB (1%)
Jazyk                                    : Španielsky

Audio #5
ID                                       : 403 (0x193)
Označenie menu                           : 104 (0x68)
Formát                                   : MPEG Audio
Format version                           : Version 1
Profil formátu                           : Layer 2
Označenie kodeku                         : 3
Trvanie                                  : 59 sek. 472 ms
Režim dátového toku                      : Konštantný dátový tok
Dátový tok                               : 192 kb/s
Kanál(y)                                 : 2 kanály
Sampling rate                            : 48,0 kHz
Frekvencia snímok                        : 41,667 snímok/sek. (1152 SPF)
Compression mode                         : Lossy
Video delay                              : 9 h 46 min
Stream size                              : 1,36 MiB (1%)
Jazyk                                    : Anglicky

Audio #6
ID                                       : 404 (0x194)
Označenie menu                           : 104 (0x68)
Formát                                   : MPEG Audio
Format version                           : Version 1
Profil formátu                           : Layer 2
Označenie kodeku                         : 3
Trvanie                                  : 59 sek. 352 ms
Režim dátového toku                      : Konštantný dátový tok
Dátový tok                               : 64,0 kb/s
Kanál(y)                                 : 1 kanál
Sampling rate                            : 48,0 kHz
Frekvencia snímok                        : 41,667 snímok/sek. (1152 SPF)
Compression mode                         : Lossy
Video delay                              : 9 h 46 min
Stream size                              : 464 kiB (0%)
Jazyk                                    : Španielsky
Language, more info                      : Visual impaired commentary

Audio #7
ID                                       : 510 (0x1FE)
Označenie menu                           : 105 (0x69)
Formát                                   : MPEG Audio
Format version                           : Version 1
Profil formátu                           : Layer 2
Označenie kodeku                         : 3
Trvanie                                  : 59 sek. 232 ms
Režim dátového toku                      : Konštantný dátový tok
Dátový tok                               : 192 kb/s
Kanál(y)                                 : 2 kanály
Sampling rate                            : 48,0 kHz
Frekvencia snímok                        : 41,667 snímok/sek. (1152 SPF)
Compression mode                         : Lossy
Video delay                              : 4 h 14 min
Stream size                              : 1,36 MiB (1%)
Jazyk                                    : Španielsky

Audio #8
ID                                       : 610 (0x262)
Označenie menu                           : 106 (0x6A)
Formát                                   : MPEG Audio
Format version                           : Version 1
Profil formátu                           : Layer 2
Označenie kodeku                         : 3
Trvanie                                  : 59 sek. 424 ms
Režim dátového toku                      : Konštantný dátový tok
Dátový tok                               : 192 kb/s
Kanál(y)                                 : 2 kanály
Sampling rate                            : 48,0 kHz
Frekvencia snímok                        : 41,667 snímok/sek. (1152 SPF)
Compression mode                         : Lossy
Video delay                              : 4 h 14 min
Stream size                              : 1,36 MiB (1%)
Jazyk                                    : Španielsky

Audio #9
ID                                       : 710 (0x2C6)
Označenie menu                           : 107 (0x6B)
Formát                                   : MPEG Audio
Format version                           : Version 1
Profil formátu                           : Layer 2
Označenie kodeku                         : 3
Trvanie                                  : 59 sek. 64 ms
Režim dátového toku                      : Konštantný dátový tok
Dátový tok                               : 192 kb/s
Kanál(y)                                 : 2 kanály
Sampling rate                            : 48,0 kHz
Frekvencia snímok                        : 41,667 snímok/sek. (1152 SPF)
Compression mode                         : Lossy
Video delay                              : 4 h 14 min
Stream size                              : 1,35 MiB (1%)
Jazyk                                    : Španielsky

Text #1
ID                                       : 311 (0x137)
Označenie menu                           : 103 (0x67)
Formát                                   : DVB Subtitle
Označenie kodeku                         : 6
Video delay                              : -11 h 6 min
Jazyk                                    : Španielsky

Text #2
ID                                       : 407 (0x197)-801
Označenie menu                           : 104 (0x68)
Formát                                   : Teletext Subtitle
Jazyk                                    : Španielsky

Menu #1
ID                                       : 300 (0x12C)
Označenie menu                           : 103 (0x67)
Trvanie                                  : 58 sek. 883 ms
Zoznam                                   : 301 (0x12D) (AVC) / 303 (0x12F) (MPEG Audio, Španielsky) / 304 (0x130) (MPEG Audio, v.o) / 305 (0x131) (MPEG Audio, Španielsky) / 311 (0x137) (DVB Subtitle, Španielsky) / 314 (0x13A) ()
Jazyk                                    :  / Španielsky / v.o / Španielsky / Španielsky
Maximálny dátový tok                     : 216000000
UTC 2021-05-11 01:10:00                  : es:Fútbol. Liga 20/21. Cádiz-R. Madrid / es: /  /  / 01:50:00 / 

Menu #2
ID                                       : 400 (0x190)
Označenie menu                           : 104 (0x68)
Trvanie                                  : 59 sek. 461 ms
Zoznam                                   : 401 (0x191) (MPEG Video) / 402 (0x192) (MPEG Audio, Španielsky) / 403 (0x193) (MPEG Audio, Anglicky) / 404 (0x194) (MPEG Audio, Španielsky) / 407 (0x197)-801 (Teletext Subtitle, es)
Jazyk                                    :  / Španielsky / Anglicky / Španielsky / Španielsky

Menu #3
ID                                       : 500 (0x1F4)
Označenie menu                           : 105 (0x69)
Trvanie                                  : 59 sek. 586 ms
Zoznam                                   : 510 (0x1FE) (MPEG Audio, Španielsky)
Jazyk                                    : Španielsky

Menu #4
ID                                       : 600 (0x258)
Označenie menu                           : 106 (0x6A)
Trvanie                                  : 59 sek. 617 ms
Zoznam                                   : 610 (0x262) (MPEG Audio, Španielsky)
Jazyk                                    : Španielsky

Menu #5
ID                                       : 700 (0x2BC)
Označenie menu                           : 107 (0x6B)
Trvanie                                  : 59 sek. 556 ms
Zoznam                                   : 710 (0x2C6) (MPEG Audio, Španielsky)
Jazyk                                    : Španielsky
Televes H30 FLEX
Gibertini OP100L /85E-53W/
WaveFrontier T90 /39E-36E-31E-28E-26E-23E-19E-16E-13E-9E-7E-5E-2E-1W-4W-30W/
TBS-5925 , TBS-5880 , TBS-5220 , Mutant HD51 , Ineos ZX4 , Coolstream Zee2 , Dreambox 900UHD/7020HD/500HD
ViaHussun
Posts: 2
Joined: Mon May 10, 2021 3:58 pm

Re: Abertis DTT Hispasat? (ALTDVB)

Post by ViaHussun »

is there any progress?
Post Reply